Website Shifted Click To Enter


Loading...





ExtraTorrent

Login   |   Register   |   Home
Browse Torrents
| TorrentCounter | Search Cloud | | | | | FAQ  

» » Eddie The Eagle 2016 x264 1080p BluRay 5 1 English Hindi GOPISAHI

Download Eddie The Eagle 2016 x264 1080p BluRay 5 1 English Hindi GOPISAHI extratorrent


Download torrent: Download Magnet Eddie The Eagle 2016 x264 1080p BluRay 5 1 English Hindi GOPISAHI
Info hash 7ECB8C0F54957C3588CF498CB017C56FEEDB65FF
Torrent ID13980782
Comments: Sort Read Comments
Category: Movies
Health:
 Seeders: n/a |  Leechers: n/a |  Completed: n/a
Torrent language: English English
Total Size: 1.2 GB
Uploader: PENDUDESI Trusted Uploader Site Friend Superman Sun
Torrent added: 08-01-2019, 07:00:06
Views: 81



Extratorrent Download Torrent



https://www.gopisahi.pw/

Format : Matroska
Format version : Version 4 / Version 2
File size : 1.17 GiB
Duration : 1 h 45 min
Overall bit rate : 1 587 kb/s

Video
Format : AVC
Format/Info : Advanced Video Codec
Codec ID : V_MPEG4/ISO/AVC
Duration : 1 h 45 min
Bit rate : 1 200 kb/s
Width : 1 980 pixels
Height : 828 pixels
Display aspect ratio : 2.40:1
Frame rate mode : Constant
Frame rate : 23.976 (24000/1001) FPS
Color space : YUV
Chroma subsampling : 4:2:0
Bit depth : 8 bits
Scan type : Progressive
Bits/(Pixel*Frame) : 0.031
Stream size : 907 MiB (76%)
Title : GOPISAHI
Writing library : x264 core 155 r2901 7d0ff22

Audio #1
Format : AAC
Duration : 1 h 45 min
Bit rate : 192 kb/s
Channel(s) : 6 channels
Channel positions : Front: L C R, Side: L R, LFE
Sampling rate : 48.0 kHz
Frame rate : 46.875 FPS (1024 SPF)
Compression mode : Lossy
Delay relative to video : -21 ms
Stream size : 145 MiB (12%)
Title : GOPISAHI
Language : Hindi

Audio #2
Format : AAC
Duration : 1 h 45 min
Bit rate : 192 kb/s
Channel(s) : 6 channels
Channel positions : Front: L C R, Side: L R, LFE
Sampling rate : 48.0 kHz
Frame rate : 46.875 FPS (1024 SPF)
Compression mode : Lossy
Delay relative to video : -21 ms
Stream size : 145 MiB (12%)
Title : GOPISAHI
Language : English

Menu
00:00:00.000 : en:00:00:00.000
00:03:33.171 : en:00:03:33.171
00:08:15.161 : en:00:08:15.161
00:12:06.684 : en:00:12:06.684
00:17:54.574 : en:00:17:54.573
00:21:31.081 : en:00:21:31.081
00:26:19.620 : en:00:26:19.578
00:31:41.566 : en:00:31:41.566
00:37:13.314 : en:00:37:13.273
00:41:46.963 : en:00:41:46.963
00:47:12.330 : en:00:47:12.329
00:50:19.350 : en:00:50:19.350
00:53:39.591 : en:00:53:39.591
00:56:57.581 : en:00:56:57.581
01:02:22.906 : en:01:02:22.906
01:08:16.884 : en:01:08:16.884
01:11:42.340 : en:01:11:42.298
01:17:05.788 : en:01:17:05.788
01:20:00.587 : en:01:20:00.587
01:23:23.457 : en:01:23:23.457
01:27:44.593 : en:01:27:44.593
01:31:40.120 : en:01:31:40.120
01:36:53.057 : en:01:36:53.057
01:40:42.078 : en:01:40:42.078






   


Related Torrents




Recent Searches

Home - Browse Torrents - Upload Torrent - Recent Torrents - Login - Register - FAQ

Can't load ExtraTorrent.cc
2006-2018 ExtraTorrent cc