ExtraTorrent

Login   |   Register   |   Home
Browse Torrents
| TorrentCounter | Search Cloud | | | | | FAQ  

» » Le Collier Rouge [The Red Collar] 2018 1080p BRRip x264 AC3 HORiZON-ArtSubs

Download Le Collier Rouge [The Red Collar] 2018 1080p BRRip x264 AC3 HORiZON-ArtSubs extratorrent


Download torrent: Download Magnet Le Collier Rouge [The Red Collar] 2018 1080p BRRip x264 AC3 HORiZON-ArtSubs
Info hash C9246FCF0794F7CF9FF91E158BC3811ACEE2BB8B
Torrent ID14020276
Comments: Sort Read Comments
Category: Movies
Health:
 Seeders: 11 |  Leechers: n/a |  Completed: 94
Torrent language: French French
Total Size: 1.6 GB
Uploader: noriegaRJ Trusted Uploader Site Friend Superman Sun
Torrent added: 15-03-2019, 01:55:04
Views: 79



Extratorrent Download Torrent

Release: Le.Collier.Rouge.[The.Red.Collar].2018.1080p.BRRip.x264.AC3.HORiZON-ArtSubs IMDB: https://www.imdb.com/title/tt7106814 Plot: In a small town, crushed by the heat of summer, in 1919, a war hero was held prisoner in a deserted barracks. In front of the door, his whipped dog barks day and night. Not far away, in the countryside, a young woman worn out by the work of the land, too educated to be a simple peasant, wait and hope. The judge who arrives to unravel this case is an aristocrat whose war has made the principles falter. Three characters and, in the middle of them, a dog, which holds the key of the drama. General Complete name : Le.Collier.Rouge.[The.Red.Collar].2018.1080p.BRRip.x264.AC3.HORiZON-ArtSubs Format : Matroska Format version : Version 4 / Version 2 File size : 1.59 GiB Duration : 1h 23mn Overall bit rate : 2 746 Kbps Encoded date : UTC 2019-03-11T05:13:37Z Writing application : HandBrake 1.0.7 2017040900 Writing library : Lavf57.7.2 Video ID : 1 Format : AVC Format/Info : Advanced Video Codec Format profile : [email protected] Format settings, CABAC : Yes Format settings, ReFrames : 5 frames Codec ID : V_MPEG4/ISO/AVC Duration : 1h 23mn Bit rate : 2 300 Kbps Width : 1 920 pixels Height : 808 pixels Display aspect ratio : 2.40:1 Frame rate mode : Constant Frame rate : 24.000 fps Color space : YUV Chroma subsampling : 4:2:0 Bit depth : 8 bits Scan type : Progressive Bits/(Pixel*Frame) : 0.062 Stream size : 1.30 GiB (82%) Writing library : x264 core 148 r2708 86b7198 Encoding settings : cabac=1 / ref=5 / deblock=1:-2:-2 / analyse=0x3:0x133 / me=umh / subme=9 / psy=1 / psy_rd=1.00:0.25 / mixed_ref=1 / me_range=16 / chroma_me=1 / trellis=2 / 8x8dct=1 / cqm=0 / deadzone=6,6 / fast_pskip=1 / chroma_qp_offset=-4 / threads=9 / lookahead_threads=1 / sliced_threads=0 / nr=0 / decimate=0 / interlaced=0 / bluray_compat=0 / constrained_intra=0 / bframes=3 / b_pyramid=2 / b_adapt=2 / b_bias=0 / direct=3 / weightb=1 / open_gop=0 / weightp=2 / keyint=240 / keyint_min=24 / scenecut=40 / intra_refresh=0 / rc_lookahead=60 / rc=2pass / mbtree=1 / bitrate=2300 / ratetol=1.0 / qcomp=0.80 / qpmin=0 / qpmax=69 / qpstep=4 / cplxblur=20.0 / qblur=0.5 / vbv_maxrate=62500 / vbv_bufsize=78125 / nal_hrd=none / filler=0 / ip_ratio=1.10 / aq=1:0.50 Default : Yes Forced : No Audio ID : 2 Format : AC-3 Format/Info : Audio Coding 3 Mode extension : CM (complete main) Format settings, Endianness : Big Codec ID : A_AC3 Duration : 1h 23mn Bit rate mode : Constant Bit rate : 448 Kbps Channel count : 6 channels Channel positions : Front: L C R, Side: L R, LFE Sampling rate : 48.0 KHz Bit depth : 16 bits Compression mode : Lossy Delay relative to video : -5ms Stream size : 266 MiB (16%) Title : Surround Language : French Default : Yes Forced : No SCREENSHOTS:


   


Related Torrents




Recent Searches

Home - Browse Torrents - Upload Torrent - Recent Torrents - Login - Register - FAQ

Can't load ExtraTorrent.cc
2006-2018 ExtraTorrent cc