ExtraTorrent

Login   |   Register   |   Home
Browse Torrents
| TorrentCounter | Search Cloud | | | | | FAQ  

» » No Retreat, No Surrender 3 - Blood Brothers 1990 x264 720p Dual Audio English Hindi GOPISAHI

Download No Retreat, No Surrender 3 - Blood Brothers 1990 x264 720p Dual Audio English Hindi GOPISAHI extratorrent


Download torrent: Download Magnet No Retreat, No Surrender 3 - Blood Brothers 1990 x264 720p Dual Audio English Hindi GOPISAHI
Info hash 022FD063E15AD2D6B61DEF2D623291408753595F
Torrent ID14020443
Comments: Sort Read Comments
Category: Movies
Health:
 Seeders: 2 |  Leechers: 1 |  Completed: 21
Torrent language: English English
Total Size: 769.2 MB
Uploader: PENDUDESI Trusted Uploader Site Friend Superman Sun
Torrent added: 15-03-2019, 08:25:05
Views: 30



Extratorrent Download Torrent



https://www.gopisahi.pw/



No Retreat, No Surrender 3 - Blood Brothers 1990 x264 720p Esub BluRay Dual Audio English Hindi GOPISAHI

Format                         : Matroska
Format version                 : Version 4 / Version 2
File size                      : 769 MiB
Duration                       : 1 h 38 min
Overall bit rate               : 1 095 kb/s
Movie name                     : No Retreat, No Surrender 3: Blood Brothers 1990 GOPISAHI

Video
Format                         : AVC
Format/Info                    : Advanced Video Codec
Codec ID                       : V_MPEG4/ISO/AVC
Duration                       : 1 h 38 min
Bit rate                       : 899 kb/s
Width                          : 1 280 pixels
Height                         : 720 pixels
Display aspect ratio           : 16:9
Frame rate mode                : Constant
Frame rate                     : 25.000 FPS
Color space                    : YUV
Chroma subsampling             : 4:2:0
Bit depth                      : 8 bits
Scan type                      : Progressive
Bits/(Pixel*Frame)             : 0.039
Stream size                    : 632 MiB (82%)
Title                          : GOPISAHI
Writing library                : x264 core 157 r2935 545de2f

Audio #1
Format                         : AAC
Duration                       : 1 h 38 min
Bit rate                       : 96.0 kb/s
Channel(s)                     : 2 channels
Channel positions              : Front: L R
Sampling rate                  : 48.0 kHz
Frame rate                     : 46.875 FPS (1024 SPF)
Compression mode               : Lossy
Delay relative to video        : -21 ms
Stream size                    : 67.7 MiB (9%)
Title                          : GOPISAHI
Language                       : Hindi

Audio #2
Format                         : AAC
Duration                       : 1 h 38 min
Bit rate                       : 96.0 kb/s
Channel(s)                     : 2 channels
Channel positions              : Front: L R
Sampling rate                  : 48.0 kHz
Frame rate                     : 46.875 FPS (1024 SPF)
Compression mode               : Lossy
Delay relative to video        : -21 ms
Stream size                    : 67.7 MiB (9%)
Title                          : GOPISAHI
Language                       : English









   


Related Torrents




Recent Searches

Home - Browse Torrents - Upload Torrent - Recent Torrents - Login - Register - FAQ

Can't load ExtraTorrent.cc
2006-2018 ExtraTorrent cc