ExtraTorrent

Login   |   Register   |   Home
Browse Torrents
| TorrentCounter | Search Cloud | | | | | FAQ  

» » Once Upon a Time in London 2019 1080p AMZN x265 6CH ReEnc-LUMI

Download Once Upon a Time in London 2019 1080p AMZN x265 6CH ReEnc-LUMI extratorrent


Download torrent: Download Magnet Once Upon a Time in London 2019 1080p AMZN x265 6CH ReEnc-LUMI
Info hash 8355F5CB6F6C7AF938F284E15651FD10F453A8B2
Torrent ID14043539
Comments: Sort Read Comments
Category: Movies
Health:
 Seeders: 3 |  Leechers: n/a |  Completed: 507
Torrent language: English English
Total Size: 1.7 GB
Uploader: lumi265 Trusted Uploader Site Friend Superman Sun
Torrent added: 22-04-2019, 20:00:05
Views: 36



Extratorrent Download Torrent



If you like the upload, please leave a comment , and any other feedback / requests are most welcome!
x265 encodes of the same size have much more detail (twice) than x264, try it for yourself once!
Please help me by seeding for as long as possible, it doesn't hurt you and helps others download!

SEED TILL YOU BLEED

Please donate:

Code:


Bitcoin: 3HKCmf9e2oTr9KvJcXCDRaCjg1AxioL1UE
BCH: qqgvak0004cj9g9p2fqcz0s8q8384s8mecq88swgpe
ETH: 0x865fEC58a2d98f44d7253A1d5cE18b40fb124462
LTC: MLogKCRBvwoeXe5z7wej8V93sQi1ue9uTr
ZEC: t1K9grYE1ZkQF9ftmowo3ejJZadpxKg9zn9



Screens:




Source: Once.Upon.a.Time.in.London.2019.1080p.AMZN.WEBRip.DDP5.1.x264-NTG (thanks)

Code:


Video
ID                                       : 1
Format                                   : HEVC
Format/Info                              : High Efficiency Video Coding
Format profile                           : [email protected]@Main
Codec ID                                 : hvc1
Codec ID/Info                            : High Efficiency Video Coding
Duration                                 : 1 h 51 min
Bit rate                                 : 1 984 kb/s
Width                                    : 1 920 pixels
Height                                   : 1 040 pixels
Display aspect ratio                     : 1.85:1
Frame rate mode                          : Constant
Frame rate                               : 24.000 FPS
Color space                              : YUV
Chroma subsampling                       : 4:2:0
Bit depth                                : 8 bits
Bits/(Pixel*Frame)                       : 0.041
Stream size                              : 1.54 GiB (91%)
Writing library                          : x265 2.9:[Windows][GCC 8.2.0][64 bit] 8bit+10bit+12bit

Audio
ID                                       : 2
Format                                   : AAC LC
Format/Info                              : Advanced Audio Codec Low Complexity
Codec ID                                 : mp4a-40-2
Duration                                 : 1 h 51 min
Bit rate mode                            : Constant
Bit rate                                 : 192 kb/s
Channel(s)                               : 6 channels
Channel layout                           : C L R Ls Rs LFE
Sampling rate                            : 48.0 kHz
Frame rate                               : 46.875 FPS (1024 SPF)
Compression mode                         : Lossy
Stream size                              : 152 MiB (9%)
Title                                    : Surround
Language                                 : English







   


Related Torrents




Recent Searches

Home - Browse Torrents - Upload Torrent - Recent Torrents - Login - Register - FAQ

Can't load ExtraTorrent.cc
2006-2018 ExtraTorrent cc