Loading...

ExtraTorrent

Login   |   Register   |   Home
Loading...
Loading...
Browse Torrents
| TorrentCounter | Search Cloud | | | | | FAQ  

» » London Boulevard 2010 1080p BluRay X264-AMIABLE

Download London Boulevard 2010 1080p BluRay X264-AMIABLE extratorrent


Download torrent: Download Magnet London Boulevard 2010 1080p BluRay X264-AMIABLE
Info hash 57CBB65218D325D28B1ECD142AAD87140082B7CF
Torrent ID14071668
Comments: Sort Read Comments
Category: Movies
Health:
 Seeders: 1 |  Leechers: n/a |  Completed: 6
Torrent language: English English
Total Size: 7.7 GB
Uploader: Sergey321 Trusted Uploader Site Friend Superman Sun
Torrent added: 16-06-2019, 17:05:05
Views: 12



Extratorrent Download Torrent



London.Boulevard.2010.1080p.BluRay.X264-AMIABLE
https://www.imdb.com/title/tt1213648/

Poster:

Mediainfo:

Video:
Format : AVC
Duration : 1 h 43 min
Bit rate : 9 125 kb/s
Width : 1 920 pixels
Height : 1 040 pixels
Frame rate : 23.976 (24000/1001) FPS
Stream size : 6.41 GiB (84%)

Audio:
Format : DTS
Duration : 1 h 43 min
Bit rate : 1 509 kb/s
Channel(s) : 6 channels
Stream size : 1.09 GiB (14%)
Language : English


Screenshots:








   


Related Torrents




Recent Searches

Home - Browse Torrents - Upload Torrent - Recent Torrents - Login - Register - FAQ

Can't load ExtraTorrent.cc
2006-2018 ExtraTorrent cc